file or any other file from Dubbed Movies category. Direct download via HTTP available as well.

GODZILLA FINAL WARS(2004)|TruDvDRip|Hindi Torrent.



Download Links
GODZILLA FINAL WARS(2004)|TruDvDRip|Hindi[Usseme Xclusive]



-: General :-
Format : Matroska
File size : 547 MiB
Duration : 1h 41mn
Language : Hindi
Overall bit rate : 754 Kbps
Encoded date : UTC 2010-02-26 19:58:46
Writing application : Mkvmerge v3.2.0 ('Beginnings') built on Feb 12 2010 16:46:17
Writing library : libebml v0.7.9 + libmatroska v0.8.1
Original Source : My Owan Collection VCD

Repper By :-=![Postarbhai]!=-

-: Genre :-
Action | Adventure | Fantasy | Sci-Fi | Thriller

Gojira: Fainaru uôzu (2004)
Format : AVC
Format/Info : Advanced Video Codec
Format profile : High@L4.1
Format settings, CABAC : Yes
Format settings, ReFrames : 3 frames
Muxing mode : Container profile=Unknown@4.1
Codec ID : V_MPEG4/ISO/AVC
Duration : 1h 41mn
Bit rate : 659 Kbps
Nominal bit rate : 674 Kbps
Width : 640 pixels
Height : 272 pixels
Display aspect ratio : 2.35:1
Frame rate : 25.000 fps
Resolution : 8 bits
Colorimetry : 4:2:0
Scan type : Progressive
Bits/(Pixel*Frame) : 0.151
Stream size : 479 MiB (87%)
Writing library : x264 core 80 r1376M 3feaec2
Audio #1 : Hindi

Format : MPEG Audio
Format version : Version 1
Format profile : Layer 3
Mode : Joint stereo
Format_Settings_ModeExtension : MS Stereo
Codec ID : A_MPEG/L3
Codec ID/Hint : MP3
Duration : 1h 41mn
Bit rate mode : Constant
Bit rate : 80.0 Kbps
Channel(s) : 2 channels
Sampling rate : 32.0 KHz
Stream size : 58.1 MiB (11%)
Writing library : LAME3.98r
Encoding settings : -m j -V 4 -q 2 -lowpass 13.5 -b 80

Post By :- Usseme

Note All User :-I Have Tested This On
The VLC Midia Player And Media Player Classic
And Works Fine.
















Download Links:
http://rapidshare.com/files/356766052/Godzilla_Final_War.2004.In_Hindi.TruDvDRip_By_Usseme.mkv.001
http://rapidshare.com/files/356774105/Godzilla_Final_War.2004.In_Hindi.TruDvDRip_By_Usseme.mkv.002
http://rapidshare.com/files/356782609/Godzilla_Final_War.2004.In_Hindi.TruDvDRip_By_Usseme.mkv.003
http://rapidshare.com/files/356790912/Godzilla_Final_War.2004.In_Hindi.TruDvDRip_By_Usseme.mkv.004
http://rapidshare.com/files/356799194/Godzilla_Final_War.2004.In_Hindi.TruDvDRip_By_Usseme.mkv.005
http://rapidshare.com/files/356807261/Godzilla_Final_War.2004.In_Hindi.TruDvDRip_By_Usseme.mkv.006
http://rapidshare.com/files/356814708/Godzilla_Final_War.2004.In_Hindi.TruDvDRip_By_Usseme.mkv.007
http://rapidshare.com/files/356822131/Godzilla_Final_War.2004.In_Hindi.TruDvDRip_By_Usseme.mkv.008
http://rapidshare.com/files/356829338/Godzilla_Final_War.2004.In_Hindi.TruDvDRip_By_Usseme.mkv.009
http://rapidshare.com/files/356835666/Godzilla_Final_War.2004.In_Hindi.TruDvDRip_By_Usseme.mkv.010
http://rapidshare.com/files/356841860/Godzilla_Final_War.2004.In_Hindi.TruDvDRip_By_Usseme.mkv.011
Download Links:
http://hotfile.com/dl/30634706/8dbd994/Godzilla_Final_War.2004.In_Hindi.TruDvDRip_By_Usseme.mkv.001.html
http://hotfile.com/dl/30634955/cf92883/Godzilla_Final_War.2004.In_Hindi.TruDvDRip_By_Usseme.mkv.002.html
http://hotfile.com/dl/30635146/b199eb9/Godzilla_Final_War.2004.In_Hindi.TruDvDRip_By_Usseme.mkv.003.html
http://hotfile.com/dl/30635314/df96cc2/Godzilla_Final_War.2004.In_Hindi.TruDvDRip_By_Usseme.mkv.004.html
http://hotfile.com/dl/30635530/0ba3a0e/Godzilla_Final_War.2004.In_Hindi.TruDvDRip_By_Usseme.mkv.005.html
http://hotfile.com/dl/30635844/bf77bf0/Godzilla_Final_War.2004.In_Hindi.TruDvDRip_By_Usseme.mkv.006.html
http://hotfile.com/dl/30636038/7c425de/Godzilla_Final_War.2004.In_Hindi.TruDvDRip_By_Usseme.mkv.007.html
http://hotfile.com/dl/30636171/7976629/Godzilla_Final_War.2004.In_Hindi.TruDvDRip_By_Usseme.mkv.008.html
http://hotfile.com/dl/30636351/789f5e4/Godzilla_Final_War.2004.In_Hindi.TruDvDRip_By_Usseme.mkv.009.html
http://hotfile.com/dl/30636456/7f8b144/Godzilla_Final_War.2004.In_Hindi.TruDvDRip_By_Usseme.mkv.010.html
http://hotfile.com/dl/30636682/84c5d1f/Godzilla_Final_War.2004.In_Hindi.TruDvDRip_By_Usseme.mkv.011.html